osu file format v14

[General]
AudioFilename: AAA - Wake up.mp3
AudioLeadIn: 1500
PreviewTime: 59978
Countdown: 0
SampleSet: Soft
StackLeniency: 0.7
Mode: 3
LetterboxInBreaks: 0
WidescreenStoryboard: 0

[Editor]
Bookmarks: 490,39865,149086
DistanceSpacing: 1
BeatDivisor: 2
GridSize: 4
TimelineZoom: 1

[Metadata]
Title:Wake up! (Anime ver.)
TitleUnicode:Wake up! (アニメver.)
Artist:AAA
ArtistUnicode:AAA
Creator:Atsuro
Version:4K NM
Source:One Piece
Tags:Opening 17 R801 Maou - sama atsuro0 Attack All Around
BeatmapID:427175
BeatmapSetID:159068

[Difficulty]
HPDrainRate:7
CircleSize:4
OverallDifficulty:7
ApproachRate:3
SliderMultiplier:1.3
SliderTickRate:1

[Events]
//Background and Video events
0,0,"bg.jpg",0,0
Video,0,"vid.avi",0,0
//Break Periods
//Storyboard Layer 0 (Background)
//Storyboard Layer 1 (Fail)
//Storyboard Layer 2 (Pass)
//Storyboard Layer 3 (Foreground)
//Storyboard Sound Samples
//Background Colour Transformations
3,100,163,162,255

[TimingPoints]
490,340.909090909091,4,2,1,80,1,0
16683,-100,4,2,5,80,0,0
17876,-100,4,2,1,80,0,0
26740,-100,4,2,5,80,0,0
28444,-100,4,2,1,80,0,0
37649,-100,4,2,5,80,0,0
39353,-100,4,2,1,80,0,0
45490,-100,4,2,5,80,0,0
53671,-100,4,2,1,80,0,0
71399,-100,4,2,1,80,0,1
86399,-100,4,2,5,80,0,1
87762,-100,4,2,1,80,0,0
98671,-100,4,2,5,80,0,0
104126,-100,4,2,5,80,0,0
112308,-100,4,2,1,80,0,0
119126,-100,4,2,1,80,0,1
129950,-100,4,2,1,80,0,0
130035,-100,4,2,1,80,0,1
146569,-100,4,2,5,80,0,1
147762,-100,4,2,1,80,0,0

[HitObjects]
448,192,490,128,2,830:0:0:0:0:
320,192,830,1,8,0:0:0:0:
64,192,1001,1,2,0:0:0:0:
320,192,1171,1,2,0:0:0:0:
192,192,1342,1,2,0:0:0:0:
448,192,1512,1,8,0:0:0:0:
64,192,1683,1,2,0:0:0:0:
192,192,1853,128,4,2194:0:0:0:0:
64,192,2194,1,0,0:0:0:0:
320,192,2535,128,8,2876:0:0:0:0:
448,192,2876,1,0,0:0:0:0:
64,192,3217,128,0,3558:0:0:0:0:
448,192,3558,1,0,0:0:0:0:
320,192,3728,1,0,0:0:0:0:
192,192,3899,128,8,4240:0:0:0:0:
64,192,4240,128,0,4580:0:0:0:0:
320,192,4580,1,4,0:0:0:0:
448,192,4921,1,0,0:0:0:0:
320,192,5262,1,8,0:0:0:0:
192,192,5603,1,0,0:0:0:0:
320,192,5944,1,0,0:0:0:0:
64,192,6285,1,0,0:0:0:0:
192,192,6285,1,8,0:0:0:0:
320,192,6626,1,0,0:0:0:0:
448,192,6967,1,8,0:0:0:0:
320,192,6967,1,0,0:0:0:0:
64,192,7308,128,4,7649:0:0:0:0:
192,192,7649,1,8,2:0:0:0:
320,192,7990,1,0,0:0:0:0:
448,192,8160,1,0,0:0:0:0:
320,192,8330,1,8,0:0:0:0:
64,192,8671,1,0,0:0:0:0:
192,192,8842,1,0,0:0:0:0:
320,192,9012,1,8,0:0:0:0:
448,192,9183,128,0,9694:0:0:0:0:
320,192,9694,1,8,2:0:0:0:
192,192,9865,1,0,0:0:0:0:
64,192,10035,1,0,0:0:0:0:
320,192,10376,1,8,0:0:0:0:
448,192,10717,1,0,0:0:0:0:
192,192,11058,1,8,0:0:0:0:
64,192,11399,1,0,0:0:0:0:
448,192,11740,1,8,0:0:0:0:
192,192,12080,1,0,0:0:0:0:
320,192,12421,1,8,0:0:0:0:
320,192,12762,1,2,0:0:0:0:
64,192,12933,1,8,0:0:0:0:
192,192,13274,1,2,0:0:0:0:
448,192,13444,1,8,0:0:0:0:
192,192,13785,1,2,0:0:0:0:
64,192,13955,1,8,0:0:0:0:
320,192,14296,1,2,0:0:0:0:
448,192,14467,1,8,0:0:0:0:
64,192,14808,128,8,14978:0:0:0:0:
192,192,14808,128,4,14978:0:0:0:0:
320,192,15149,128,8,15319:0:0:0:0:
448,192,15149,128,4,15319:0:0:0:0:
64,192,15490,1,0,0:0:0:0:
192,192,15660,1,8,0:0:0:0:
320,192,16001,1,0,0:0:0:0:
64,192,16171,128,8,16512:0:0:0:0:
320,192,16512,1,8,0:0:0:0:
448,192,16683,128,0,17876:0:0:0:0:
192,192,17194,1,2,0:0:0:0:
64,192,17535,1,2,0:0:0:0:
192,192,17876,1,4,0:0:0:0:
64,192,18217,128,2,18558:0:0:0:0:
192,192,18558,1,0,1:0:0:0:
320,192,18899,1,0,0:0:0:0:
192,192,19069,1,0,0:0:0:0:
320,192,19240,1,0,1:0:0:0:
192,192,19410,1,0,0:0:0:0:
64,192,19580,1,0,0:0:0:0:
448,192,19751,1,0,0:0:0:0:
64,192,19921,1,0,1:0:0:0:
448,192,20092,128,0,20433:0:0:0:0:
320,192,20433,1,0,0:0:0:0:
64,192,20603,1,0,1:0:0:0:
192,192,20774,1,0,0:0:0:0:
320,192,20944,128,0,21285:0:0:0:0:
64,192,21285,1,0,1:0:0:0:
64,192,21626,1,0,0:0:0:0:
192,192,21796,1,0,0:0:0:0:
320,192,21967,1,0,1:0:0:0:
448,192,22137,128,0,22478:0:0:0:0:
320,192,22478,1,0,0:0:0:0:
192,192,22649,1,0,1:0:0:0:
64,192,22819,128,0,23160:0:0:0:0:
448,192,23160,1,0,0:0:0:0:
192,192,23330,128,0,23671:0:0:0:0:
320,192,23671,1,4,0:0:0:0:
320,192,24012,128,0,24353:0:0:0:0:
192,192,24353,1,0,0:0:0:0:
448,192,24524,1,0,0:0:0:0:
64,192,24694,128,0,24865:0:0:0:0:
320,192,24865,1,0,0:0:0:0:
192,192,25035,128,0,25376:0:0:0:0:
320,192,25376,1,0,1:0:0:0:
64,192,25546,128,0,25887:0:0:0:0:
192,192,25887,1,0,0:0:0:0:
320,192,26058,1,0,1:0:0:0:
448,192,26228,1,0,0:0:0:0:
320,192,26399,128,0,26740:0:0:0:0:
192,192,26740,1,0,1:0:0:0:
320,192,27080,1,2,0:0:0:0:
64,192,27251,1,2,0:0:0:0:
448,192,27421,128,0,27592:0:0:0:0:
192,192,27762,1,2,0:0:0:0:
320,192,27933,1,2,0:0:0:0:
192,192,28103,1,0,1:0:0:0:
64,192,28274,1,2,0:0:0:0:
192,192,28444,128,0,28785:0:0:0:0:
320,192,28785,1,0,1:0:0:0:
448,192,29126,128,4,29467:0:0:0:0:
320,192,29467,1,0,1:0:0:0:
64,192,29637,128,0,29978:0:0:0:0:
192,192,29978,1,0,0:0:0:0:
448,192,30149,1,0,1:0:0:0:
320,192,30319,1,0,0:0:0:0:
192,192,30490,1,0,0:0:0:0:
448,192,30660,1,0,0:0:0:0:
64,192,30830,1,0,1:0:0:0:
320,192,31001,128,0,31342:0:0:0:0:
448,192,31342,1,0,0:0:0:0:
64,192,31512,1,0,1:0:0:0:
448,192,31683,1,0,0:0:0:0:
64,192,31853,128,0,32194:0:0:0:0:
192,192,32194,1,0,1:0:0:0:
448,192,32535,128,0,32876:0:0:0:0:
320,192,32876,1,0,1:0:0:0:
192,192,33217,128,0,33558:0:0:0:0:
64,192,33558,1,0,1:0:0:0:
320,192,33899,128,0,34580:0:0:0:0:
448,192,34240,128,0,34580:0:0:0:0:
192,192,34580,1,4,0:0:0:0:
448,192,34921,128,0,35262:0:0:0:0:
320,192,35262,1,0,0:0:0:0:
192,192,35433,1,0,0:0:0:0:
64,192,35603,1,0,1:0:0:0:
192,192,35774,1,0,0:0:0:0:
448,192,35944,128,0,36285:0:0:0:0:
320,192,36285,1,0,1:0:0:0:
192,192,36455,128,0,36796:0:0:0:0:
320,192,36796,1,0,0:0:0:0:
64,192,36967,1,0,1:0:0:0:
192,192,37137,1,0,0:0:0:0:
64,192,37308,128,0,37649:0:0:0:0:
192,192,37649,1,0,1:0:0:0:
320,192,37819,1,2,0:0:0:0:
448,192,37990,1,2,0:0:0:0:
320,192,38160,1,2,0:0:0:0:
192,192,38330,128,0,38671:0:0:0:0:
64,192,38671,1,2,0:0:0:0:
448,192,38842,1,2,0:0:0:0:
320,192,39012,1,0,1:0:0:0:
64,192,39183,1,2,0:0:0:0:
448,192,39353,128,0,39524:0:0:0:0:
320,192,39524,1,0,0:0:0:0:
64,192,39694,1,0,1:0:0:0:
192,192,39865,1,0,0:0:0:0:
320,192,40035,128,4,40376:0:0:0:0:
192,192,40376,1,0,1:0:0:0:
64,192,40546,128,0,40887:0:0:0:0:
448,192,40887,1,0,0:0:0:0:
320,192,41058,1,0,1:0:0:0:
192,192,41228,1,0,0:0:0:0:
320,192,41399,128,0,41740:0:0:0:0:
64,192,41740,1,0,1:0:0:0:
192,192,41910,128,0,42251:0:0:0:0:
448,192,42251,1,0,0:0:0:0:
320,192,42421,1,0,1:0:0:0:
192,192,42592,1,0,0:0:0:0:
64,192,42762,128,0,43103:0:0:0:0:
448,192,43103,1,0,1:0:0:0:
320,192,43444,1,0,0:0:0:0:
448,192,43615,1,0,0:0:0:0:
64,192,43785,1,0,1:0:0:0:
448,192,44126,1,8,0:0:0:0:
448,192,44296,1,8,0:0:0:0:
192,192,44467,1,8,0:0:0:0:
192,192,44637,1,8,0:0:0:0:
320,192,44808,1,8,0:0:0:0:
320,192,44978,1,8,0:0:0:0:
64,192,45149,1,8,0:0:0:0:
64,192,45319,1,8,0:0:0:0:
192,192,45490,1,4,0:0:0:0:
320,192,45490,1,0,0:0:0:0:
64,192,45830,1,2,0:0:0:0:
192,192,46171,1,0,0:0:0:0:
320,192,46512,1,2,0:0:0:0:
448,192,46853,128,0,47194:0:0:0:0:
320,192,47194,1,2,0:0:0:0:
64,192,47365,128,0,47705:0:0:0:0:
448,192,47705,1,0,0:0:0:0:
320,192,47876,1,2,0:0:0:0:
192,192,48046,1,0,0:0:0:0:
64,192,48217,128,0,48558:0:0:0:0:
192,192,48558,1,2,0:0:0:0:
448,192,48728,128,0,49069:0:0:0:0:
320,192,49069,1,0,0:0:0:0:
192,192,49240,1,2,0:0:0:0:
64,192,49410,1,0,0:0:0:0:
320,192,49580,1,0,0:0:0:0:
448,192,49921,128,2,50433:0:0:0:0:
320,192,50433,1,0,0:0:0:0:
192,192,50603,1,2,0:0:0:0:
64,192,50774,1,0,0:0:0:0:
320,192,50944,128,4,51285:0:0:0:0:
192,192,51285,1,2,0:0:0:0:
448,192,51455,1,0,0:0:0:0:
320,192,51626,1,0,0:0:0:0:
64,192,51967,1,2,0:0:0:0:
320,192,52308,1,0,0:0:0:0:
192,192,52478,1,0,0:0:0:0:
448,192,52649,128,2,52990:0:0:0:0:
320,192,52990,1,0,0:0:0:0:
64,192,53330,1,2,0:0:0:0:
320,192,53671,128,4,54012:0:0:0:0:
192,192,54012,1,8,0:0:0:0:
64,192,54353,1,0,0:0:0:0:
192,192,54524,1,0,0:0:0:0:
320,192,54694,1,8,0:0:0:0:
448,192,55035,128,0,55376:0:0:0:0:
320,192,55376,1,8,0:0:0:0:
192,192,55717,1,0,0:0:0:0:
320,192,55887,1,0,0:0:0:0:
192,192,56058,1,8,0:0:0:0:
64,192,56399,1,0,0:0:0:0:
192,192,56569,1,0,0:0:0:0:
320,192,56740,1,8,0:0:0:0:
64,192,56910,1,0,0:0:0:0:
448,192,57080,1,0,0:0:0:0:
64,192,57251,1,0,0:0:0:0:
192,192,57421,1,8,0:0:0:0:
320,192,57592,128,4,57933:0:0:0:0:
192,192,57933,1,0,0:0:0:0:
64,192,58103,1,8,0:0:0:0:
192,192,58274,1,0,0:0:0:0:
320,192,58444,1,0,0:0:0:0:
448,192,58615,1,0,0:0:0:0:
320,192,58785,1,8,0:0:0:0:
192,192,58955,1,0,0:0:0:0:
64,192,59126,128,2,59467:0:0:0:0:
192,192,59467,1,8,0:0:0:0:
448,192,59808,128,2,60149:0:0:0:0:
320,192,60149,1,8,0:0:0:0:
192,192,60319,1,2,0:0:0:0:
64,192,60490,1,0,0:0:0:0:
192,192,60830,1,8,0:0:0:0:
320,192,60830,1,0,0:0:0:0:
448,192,61171,1,0,0:0:0:0:
192,192,61512,1,8,0:0:0:0:
320,192,61512,1,0,0:0:0:0:
448,192,61853,1,0,0:0:0:0:
320,192,62024,1,0,0:0:0:0:
192,192,62194,1,8,0:0:0:0:
64,192,62365,1,0,0:0:0:0:
448,192,62535,128,0,62876:0:0:0:0:
320,192,62876,1,8,0:0:0:0:
192,192,63046,1,0,0:0:0:0:
64,192,63217,128,0,63558:0:0:0:0:
320,192,63558,1,8,0:0:0:0:
448,192,63899,1,0,0:0:0:0:
320,192,64069,1,0,0:0:0:0:
192,192,64240,128,8,64580:0:0:0:0:
320,192,64580,1,0,0:0:0:0:
448,192,64751,1,0,0:0:0:0:
320,192,64921,1,8,0:0:0:0:
64,192,65092,128,0,65433:0:0:0:0:
192,192,65433,1,0,0:0:0:0:
320,192,65603,1,8,0:0:0:0:
448,192,65774,1,0,0:0:0:0:
64,192,65944,128,0,66285:0:0:0:0:
192,192,66285,1,8,0:0:0:0:
320,192,66455,1,0,0:0:0:0:
64,192,66796,1,0,0:0:0:0:
192,192,66967,1,8,0:0:0:0:
320,192,67137,1,0,0:0:0:0:
448,192,67308,128,0,67649:0:0:0:0:
320,192,67649,1,8,0:0:0:0:
192,192,67819,128,0,68160:0:0:0:0:
320,192,68160,1,0,0:0:0:0:
448,192,68330,1,8,0:0:0:0:
320,192,68501,1,0,0:0:0:0:
192,192,68671,1,0,0:0:0:0:
64,192,69012,1,8,0:0:0:0:
448,192,69183,1,2,0:0:0:0:
64,192,69524,1,8,0:0:0:0:
320,192,69524,1,2,0:0:0:0:
448,192,69865,1,8,0:0:0:0:
192,192,69865,128,4,70035:0:0:0:0:
64,192,70205,128,0,70376:0:0:0:0:
192,192,70376,1,8,0:0:0:0:
320,192,70546,1,0,0:0:0:0:
192,192,70717,128,0,71058:0:0:0:0:
320,192,71058,128,8,71399:0:0:0:0:
448,192,71058,1,0,0:0:0:0:
64,192,71399,1,4,0:0:0:0:
448,192,71740,1,8,0:0:0:0:
192,192,72080,1,0,0:0:0:0:
320,192,72421,1,8,0:0:0:0:
448,192,72762,128,0,73103:0:0:0:0:
320,192,73103,1,8,0:0:0:0:
192,192,73274,128,0,73615:0:0:0:0:
448,192,73615,1,0,0:0:0:0:
320,192,73785,128,8,73955:0:0:0:0:
448,192,73955,1,0,0:0:0:0:
192,192,74126,1,0,0:0:0:0:
448,192,74467,128,8,74808:0:0:0:0:
320,192,74808,1,0,0:0:0:0:
192,192,74978,1,0,0:0:0:0:
64,192,75149,128,8,75490:0:0:0:0:
192,192,75490,128,0,75830:0:0:0:0:
320,192,75830,1,8,0:0:0:0:
448,192,76001,128,0,76342:0:0:0:0:
320,192,76342,1,0,0:0:0:0:
192,192,76512,1,8,0:0:0:0:
64,192,76683,1,0,0:0:0:0:
192,192,76853,1,0,0:0:0:0:
320,192,77024,1,0,0:0:0:0:
448,192,77194,1,8,0:0:0:0:
192,192,77365,128,0,77705:0:0:0:0:
64,192,77705,1,0,0:0:0:0:
320,192,77876,1,8,0:0:0:0:
448,192,78046,1,0,0:0:0:0:
320,192,78217,1,0,0:0:0:0:
64,192,78387,1,0,0:0:0:0:
192,192,78558,1,8,0:0:0:0:
64,192,78728,128,0,79240:0:0:0:0:
448,192,78728,128,4,79240:0:0:0:0:
192,192,79240,1,8,0:0:0:0:
320,192,79410,1,0,0:0:0:0:
448,192,79580,128,2,79921:0:0:0:0:
64,192,79921,128,8,80262:0:0:0:0:
320,192,80262,128,2,80603:0:0:0:0:
192,192,80603,128,8,80944:0:0:0:0:
448,192,80944,128,2,81285:0:0:0:0:
64,192,81285,128,8,81626:0:0:0:0:
320,192,81626,128,2,81967:0:0:0:0:
192,192,81967,1,8,0:0:0:0:
448,192,82308,1,6,0:0:0:0:
192,192,82478,1,8,0:0:0:0:
320,192,82819,1,2,0:0:0:0:
64,192,82990,1,8,0:0:0:0:
192,192,83330,1,2,0:0:0:0:
448,192,83501,1,8,0:0:0:0:
64,192,83842,1,2,0:0:0:0:
320,192,84012,1,8,0:0:0:0:
64,192,84353,1,10,0:0:0:0:
448,192,84353,1,4,0:0:0:0:
320,192,84694,128,2,85035:0:0:0:0:
192,192,84694,1,0,0:0:0:0:
448,192,85035,1,2,0:0:0:0:
64,192,85205,128,8,85546:0:0:0:0:
320,192,85546,1,2,0:0:0:0:
448,192,85717,128,8,86058:0:0:0:0:
192,192,86058,1,8,0:0:0:0:
320,192,86228,128,8,87762:0:0:0:0:
192,192,86740,1,2,0:0:0:0:
448,192,87080,1,2,0:0:0:0:
64,192,87421,1,4,0:0:0:0:
192,192,87762,128,0,88103:0:0:0:0:
448,192,87762,128,4,88103:0:0:0:0:
320,192,88103,1,8,0:0:0:0:
64,192,88444,1,0,0:0:0:0:
320,192,88785,128,8,89126:0:0:0:0:
448,192,89126,1,0,0:0:0:0:
64,192,89467,128,8,89808:0:0:0:0:
320,192,89808,128,0,90149:0:0:0:0:
192,192,90149,128,8,90490:0:0:0:0:
448,192,90149,1,0,0:0:0:0:
64,192,90490,1,0,0:0:0:0:
64,192,90830,128,8,91171:0:0:0:0:
192,192,91171,1,0,0:0:0:0:
448,192,91512,128,8,91853:0:0:0:0:
320,192,91853,1,0,0:0:0:0:
64,192,92194,128,8,92535:0:0:0:0:
320,192,92535,1,0,0:0:0:0:
448,192,92705,1,0,0:0:0:0:
192,192,92876,1,8,0:0:0:0:
64,192,93046,1,0,0:0:0:0:
320,192,93217,128,0,93899:0:0:0:0:
448,192,93558,1,8,0:0:0:0:
192,192,93899,1,0,0:0:0:0:
64,192,94240,128,8,94580:0:0:0:0:
320,192,94580,1,0,0:0:0:0:
192,192,94921,128,8,95603:0:0:0:0:
320,192,95262,1,0,0:0:0:0:
448,192,95603,128,8,96285:0:0:0:0:
64,192,95944,1,0,0:0:0:0:
320,192,96285,128,8,96455:0:0:0:0:
192,192,96455,128,0,96796:0:0:0:0:
64,192,96796,1,0,0:0:0:0:
448,192,96967,128,8,97308:0:0:0:0:
320,192,97308,128,0,97649:0:0:0:0:
192,192,97649,128,8,97990:0:0:0:0:
64,192,97990,128,0,98330:0:0:0:0:
448,192,98330,1,8,0:0:0:0:
320,192,98671,1,10,0:0:0:0:
192,192,98842,1,2,0:0:0:0:
64,192,99012,1,2,0:0:0:0:
448,192,99183,1,10,0:0:0:0:
320,192,99353,1,2,0:0:0:0:
192,192,99524,1,2,0:0:0:0:
64,192,99694,1,10,0:0:0:0:
192,192,99865,1,2,0:0:0:0:
320,192,100035,1,2,0:0:0:0:
192,192,100205,1,10,0:0:0:0:
320,192,100376,1,2,0:0:0:0:
448,192,100546,1,2,0:0:0:0:
320,192,100717,1,10,0:0:0:0:
192,192,100887,1,2,0:0:0:0:
320,192,101058,1,2,0:0:0:0:
64,192,101228,128,6,101569:0:0:0:0:
192,192,101569,1,2,0:0:0:0:
320,192,101740,1,10,0:0:0:0:
448,192,101910,1,2,0:0:0:0:
64,192,102080,1,2,0:0:0:0:
192,192,102251,1,2,0:0:0:0:
320,192,102421,1,10,0:0:0:0:
448,192,102592,128,6,102933:0:0:0:0:
320,192,102933,5,2,0:0:0:0:
192,192,103103,1,10,0:0:0:0:
64,192,103274,1,2,0:0:0:0:
448,192,103444,1,10,0:0:0:0:
320,192,103615,1,10,0:0:0:0:
192,192,103785,1,10,0:0:0:0:
64,192,103955,1,10,0:0:0:0:
192,192,104126,128,4,104467:0:0:0:0:
320,192,104467,1,2,0:0:0:0:
320,192,104808,1,0,0:0:0:0:
448,192,104978,1,0,0:0:0:0:
320,192,105149,1,2,0:0:0:0:
64,192,105490,128,0,105830:0:0:0:0:
192,192,105830,1,2,0:0:0:0:
448,192,106001,128,0,106342:0:0:0:0:
320,192,106342,1,0,0:0:0:0:
192,192,106512,1,2,0:0:0:0:
64,192,106683,1,0,0:0:0:0:
192,192,106853,128,0,107194:0:0:0:0:
320,192,107194,1,2,0:0:0:0:
64,192,107365,128,0,107705:0:0:0:0:
320,192,107705,1,0,0:0:0:0:
192,192,108046,128,0,108387:0:0:0:0:
64,192,108387,1,0,0:0:0:0:
320,192,108558,1,2,0:0:0:0:
64,192,108899,1,0,0:0:0:0:
192,192,109069,1,0,0:0:0:0:
320,192,109240,1,2,0:0:0:0:
448,192,109580,1,4,0:0:0:0:
320,192,109921,1,2,0:0:0:0:
192,192,110092,1,0,0:0:0:0:
64,192,110262,1,0,0:0:0:0:
192,192,110603,1,2,0:0:0:0:
320,192,110774,1,0,0:0:0:0:
448,192,110944,1,0,0:0:0:0:
320,192,111285,1,2,0:0:0:0:
192,192,111455,1,0,0:0:0:0:
64,192,111626,1,0,0:0:0:0:
448,192,111967,1,2,0:0:0:0:
448,192,112308,128,4,112649:0:0:0:0:
64,192,112649,1,8,0:0:0:0:
320,192,112819,1,0,0:0:0:0:
192,192,113160,1,0,0:0:0:0:
320,192,113330,1,8,0:0:0:0:
192,192,113501,1,0,0:0:0:0:
64,192,113671,128,0,114012:0:0:0:0:
192,192,114012,128,8,114183:0:0:0:0:
320,192,114183,1,0,0:0:0:0:
448,192,114353,1,0,0:0:0:0:
192,192,114524,1,0,0:0:0:0:
448,192,114694,1,8,0:0:0:0:
64,192,114865,1,0,0:0:0:0:
448,192,115035,128,0,115376:0:0:0:0:
320,192,115376,1,8,0:0:0:0:
192,192,115546,128,0,115887:0:0:0:0:
64,192,115887,1,0,0:0:0:0:
192,192,116058,1,8,0:0:0:0:
320,192,116228,1,4,0:0:0:0:
64,192,116569,1,0,0:0:0:0:
192,192,116740,1,8,0:0:0:0:
320,192,116910,1,0,0:0:0:0:
448,192,117080,128,0,117421:0:0:0:0:
320,192,117421,128,8,117762:0:0:0:0:
192,192,117762,1,2,0:0:0:0:
64,192,117933,1,0,0:0:0:0:
320,192,118103,1,8,0:0:0:0:
448,192,118274,1,0,0:0:0:0:
192,192,118444,1,2,0:0:0:0:
64,192,118615,1,0,0:0:0:0:
320,192,118785,1,8,0:0:0:0:
448,192,118955,1,0,0:0:0:0:
320,192,119126,128,4,119467:0:0:0:0:
192,192,119126,1,4,0:0:0:0:
448,192,119467,1,8,0:0:0:0:
192,192,119808,128,0,120149:0:0:0:0:
64,192,120149,1,8,0:0:0:0:
192,192,120319,1,0,0:0:0:0:
320,192,120490,128,0,120830:0:0:0:0:
192,192,120830,128,8,121001:0:0:0:0:
64,192,121001,128,0,121342:0:0:0:0:
192,192,121342,1,0,0:0:0:0:
320,192,121512,1,8,0:0:0:0:
448,192,121683,1,0,0:0:0:0:
192,192,121853,1,0,0:0:0:0:
448,192,122194,1,8,0:0:0:0:
320,192,122365,1,0,0:0:0:0:
192,192,122535,128,0,122876:0:0:0:0:
64,192,122876,1,8,0:0:0:0:
448,192,123046,1,0,0:0:0:0:
320,192,123217,128,0,123558:0:0:0:0:
192,192,123558,1,8,0:0:0:0:
64,192,123728,128,0,124240:0:0:0:0:
192,192,124240,1,8,0:0:0:0:
320,192,124410,1,0,0:0:0:0:
448,192,124580,128,0,124921:0:0:0:0:
320,192,124921,1,8,0:0:0:0:
64,192,125092,128,0,125433:0:0:0:0:
192,192,125433,1,0,0:0:0:0:
320,192,125603,1,8,0:0:0:0:
192,192,125774,1,0,0:0:0:0:
64,192,125944,128,0,126285:0:0:0:0:
192,192,126285,1,8,0:0:0:0:
448,192,126455,128,0,126796:0:0:0:0:
320,192,126796,1,0,0:0:0:0:
192,192,126967,1,8,0:0:0:0:
64,192,127137,1,0,0:0:0:0:
320,192,127308,128,0,127649:0:0:0:0:
192,192,127649,1,8,0:0:0:0:
320,192,127819,1,8,0:0:0:0:
448,192,127819,1,2,0:0:0:0:
64,192,128160,1,2,0:0:0:0:
192,192,128160,1,8,0:0:0:0:
320,192,128501,128,4,129012:0:0:0:0:
448,192,128501,128,0,129012:0:0:0:0:
192,192,129012,1,8,0:0:0:0:
64,192,129183,1,0,0:0:0:0:
192,192,129353,1,0,0:0:0:0:
64,192,129524,1,0,0:0:0:0:
320,192,129694,1,4,0:0:0:0:
448,192,129694,1,4,0:0:0:0:
448,192,130035,1,0,0:0:0:0:
192,192,130035,1,0,0:0:0:0:
64,192,130376,1,8,0:0:0:0:
320,192,130376,1,0,0:0:0:0:
448,192,130717,1,0,0:0:0:0:
192,192,130717,1,0,0:0:0:0:
64,192,131058,1,8,0:0:0:0:
320,192,131058,1,0,0:0:0:0:
192,192,131228,1,0,0:0:0:0:
320,192,131399,128,0,131740:0:0:0:0:
64,192,131740,1,8,0:0:0:0:
448,192,131910,128,0,132251:0:0:0:0:
320,192,132251,1,0,0:0:0:0:
64,192,132421,128,8,132762:0:0:0:0:
192,192,132762,1,0,0:0:0:0:
320,192,133103,1,8,0:0:0:0:
448,192,133274,1,0,0:0:0:0:
320,192,133444,1,0,0:0:0:0:
192,192,133785,1,8,0:0:0:0:
64,192,133955,1,0,0:0:0:0:
192,192,134126,128,0,134467:0:0:0:0:
448,192,134467,1,8,0:0:0:0:
320,192,134637,128,0,134978:0:0:0:0:
192,192,134978,1,0,0:0:0:0:
64,192,135149,1,8,0:0:0:0:
192,192,135319,1,0,0:0:0:0:
64,192,135490,1,0,0:0:0:0:
192,192,135660,1,0,0:0:0:0:
64,192,135830,1,8,0:0:0:0:
192,192,136001,1,0,0:0:0:0:
320,192,136342,1,0,0:0:0:0:
448,192,136512,1,8,0:0:0:0:
320,192,136683,1,0,0:0:0:0:
448,192,136853,1,0,0:0:0:0:
320,192,137024,1,0,0:0:0:0:
448,192,137194,1,8,0:0:0:0:
320,192,137365,128,0,137876:0:0:0:0:
192,192,137365,128,4,137876:0:0:0:0:
448,192,137876,1,8,0:0:0:0:
320,192,138046,1,0,0:0:0:0:
64,192,138217,128,2,139580:0:0:0:0:
192,192,138558,128,8,139580:0:0:0:0:
320,192,138899,1,2,0:0:0:0:
448,192,139240,1,8,0:0:0:0:
320,192,139580,1,2,0:0:0:0:
448,192,139921,1,8,0:0:0:0:
320,192,140262,1,2,0:0:0:0:
192,192,140603,1,8,0:0:0:0:
64,192,140944,1,2,0:0:0:0:
448,192,141115,1,8,0:0:0:0:
192,192,141455,1,2,0:0:0:0:
448,192,141626,1,8,0:0:0:0:
192,192,141967,1,2,0:0:0:0:
320,192,142137,1,8,0:0:0:0:
320,192,142478,1,2,0:0:0:0:
192,192,142649,1,8,0:0:0:0:
64,192,142990,128,8,143330:0:0:0:0:
448,192,142990,128,4,143330:0:0:0:0:
192,192,143330,128,8,143671:0:0:0:0:
320,192,143330,128,4,143671:0:0:0:0:
64,192,143671,1,0,0:0:0:0:
448,192,143671,1,2,0:0:0:0:
192,192,143842,128,8,144183:0:0:0:0:
320,192,143842,1,0,0:0:0:0:
64,192,144183,1,2,0:0:0:0:
448,192,144353,128,8,144694:0:0:0:0:
64,192,144694,1,2,0:0:0:0:
320,192,144865,128,8,145205:0:0:0:0:
192,192,145205,1,2,0:0:0:0:
64,192,145376,1,2,0:0:0:0:
192,192,145546,1,2,0:0:0:0:
320,192,145717,1,8,0:0:0:0:
192,192,145887,128,8,146228:0:0:0:0:
448,192,146228,1,8,0:0:0:0:
64,192,146399,128,4,147762:0:0:0:0:
448,192,147592,1,4,0:0:0:0:
320,192,147762,1,4,0:0:0:0:
